#TITLE:MAX 300 vROFL;
#SUBTITLE:;
#ARTIST:vRΩFL;
#TITLETRANSLIT:;
#SUBTITLETRANSLIT:;
#ARTISTTRANSLIT:;
#CREDIT:Dark Bahamut;
#BANNER:MAX 300 vROFL-bn.png;
#BACKGROUND:MAX 300 vROFL-bg.png;
#LYRICSPATH:;
#CDTITLE:!idark.png;
#MUSIC:MAX 300 vROFL.mp3;
#OFFSET:-0.190;
#SAMPLESTART:13.790;
#SAMPLELENGTH:12.800;
#SELECTABLE:YES;
#BPMS:0.000=300.000;
#STOPS:;
#BGCHANGES:;
// cache tags:
#FIRSTBEAT:4.000;
#LASTBEAT:449.000;
#SONGFILENAME:Songs/Music V.I.P ^_^/MAX 300 vROFL/MAX 300 vROFL.sm;
#HASMUSIC:1;
#HASBANNER:1;
#MUSICLENGTH:92.741;
// end cache tags

//---------------dance-single - INSANE!!!----------------
#NOTES:
     dance-single:
     INSANE!!!:
     Challenge:
     1337:
     1.000,1.000,1.000,0.776,1.000,2590.000,1328.000,72.000,0.000,872.000:

0000
0000
0000
0000
,
1101
0000
0010
0101
0010
0000
1011
0000
1000
0101
1000
0000
1011
0000
0000
1101
0000
0000
0011
0000
0000
1101
0000
0000
,
1110
0000
0100
1001
0100
0000
0111
0000
0010
1001
0010
0000
0111
0000
0000
1110
0000
0000
1001
0000
0000
1110
0000
0000
,
1011
0000
0001
1010
0001
0000
1101
0000
0100
1010
0100
0000
1101
0000
0000
1011
0000
0000
1100
0000
0000
1011
0000
0000
,
0111
0000
0000
0000
0000
0000
0000
0000
0000
0000
0000
0000
0000
0000
0000
0000
0100
0000
0000
0000
0000
0000
0000
0000
1011
0000
0000
0000
0000
0000
0000
0000
0100
0000
0000
0000
0000
0000
0000
0000
0000
0000
0000
0000
0000
0000
0000
0000
1101
0000
0000
0000
0000
0000
0000
0000
0000
0000
0000
0000
0000
0000
0000
0000
0001
0000
0000
0000
0000
0000
0000
0000
1110
0000
0000
0000
0000
0000
0000
0000
0001
0000
0000
0000
0000
0000
0000
0000
0000
0000
0000
0000
0000
0000
0000
0000
1111
0000
0000
0000
0000
0000
0000
0000
0000
0000
0000
0000
0000
0000
0000
0000
0000
0000
0000
0000
0000
0000
0000
0000
0000
0000
0000
0000
0000
0000
0000
0000
0000
0000
0000
0000
1111
0000
0000
0000
0000
0000
0000
0000
0000
0000
0000
0000
0000
0000
0000
0000
0000
0000
0000
0000
0000
0000
0000
0000
0000
0000
0000
0000
0000
0000
1111
0000
0000
0000
0000
0000
0000
0000
0000
0000
0000
0000
0000
0000
0000
0000
0000
0000
0000
0000
0000
0000
0000
0000
0000
0000
0000
0000
0000
0000
,
1011
0000
0100
1010
0100
0000
1101
0000
0001
1010
0001
0000
1101
0000
0000
1011
0000
0000
1100
0000
0000
1011
0000
0000
,
0111
0000
0010
1001
0010
0000
1110
0000
0100
1001
0100
0000
1110
0000
0000
0111
0000
0000
1001
0000
0000
0111
0000
0000
,
1101
0000
1000
0101
1000
0000
1011
0000
0010
0101
0010
0000
1011
0000
0000
1101
0000
0000
0011
0000
0000
1101
0000
0000
,
1110
0000
0000
0000
0010
0000
1101
0000
0010
0000
0000
0000
1011
0000
0000
0000
1000
0000
0111
0000
1000
0000
0000
0000
1111
0000
0000
0000
0000
0000
1001
0000
0000
0110
0000
0000
1001
0000
0000
0110
0000
0000
1001
0000
0000
0000
0000
0000
,
1111
0000
1100
0110
0011
0000
1110
0000
0011
0110
1100
0000
1111
0000
1100
0000
0011
0000
0111
0000
0011
0000
1100
0000
,
1111
0000
1010
1001
0101
0000
1101
0000
0101
1001
1010
0000
1111
0000
1010
0000
0101
0000
1011
0000
0101
0000
1010
0000
,
1111
0000
1001
1100
0110
0000
1110
0000
0110
0011
1001
0000
1111
0000
1001
0000
0110
0000
0111
0000
0110
0000
1001
0000
,
1110
0000
0000
1101
0000
0000
1011
0000
0000
0111
0000
0000
1111
0000
0000
0000
1111
0000
0000
0000
1111
0000
0000
0000
,
1111
0000
0011
0110
1100
0000
0111
0000
1100
0110
0011
0000
1111
0000
0011
0000
1100
0000
1110
0000
1100
0000
0011
0000
,
1111
0000
0101
1001
1010
0000
1011
0000
1010
0000
0101
0000
1111
0000
0101
1001
1010
0000
1101
0000
1010
0000
0101
0000
,
1110
1101
1011
0111
1111
0000
1111
0000
0111
1011
1101
1110
1111
0000
1111
0000
,
1110
1101
1011
0111
1011
1101
1110
1101
1011
0111
1011
1101
1110
1101
1011
0111
1011
1101
1110
1101
1011
0111
1011
1101
,
1110
0000
0000
0001
0100
0000
0010
0000
0001
1000
0000
0000
0111
0000
0000
1000
0010
0000
0100
0000
1000
0001
0000
0000
1110
0000
0000
0001
0100
0000
0010
0000
0001
1000
0000
0000
0111
0000
0000
1000
0010
0000
0100
0000
1000
0010
0000
0000
,
1101
0000
0000
0010
0100
0000
1000
0000
0010
0100
0000
0000
1011
0000
0000
0100
0010
0000
0001
0000
0100
0010
0000
0000
1101
0000
0000
0010
0100
0000
1000
0000
0010
0100
0000
0000
1011
0000
0000
0100
0010
0000
0001
0000
0100
1000
0000
0000
,
0111
0000
0000
1000
0010
0000
0100
0000
1000
0001
0000
0000
1110
0000
0000
0001
0100
0000
0010
0000
0001
1000
0000
0000
0111
0000
0000
1000
0010
0000
0100
0000
1000
0001
0000
0000
1110
0000
0000
0001
1000
0000
0010
0000
0001
0100
0000
0000
,
1011
0000
0010
0100
0001
0000
1000
0000
0100
0010
1000
0000
1101
0000
0100
0010
1000
0000
0001
0000
0010
0100
0001
0000
1011
0000
0010
0100
0001
0000
1000
0000
0100
0010
1000
0000
1101
0000
0100
0010
1000
0000
0001
0000
0010
1000
0001
0000
,
1110
0000
0000
0001
1000
0000
0100
0000
0001
0010
0000
0000
1101
0000
0000
0010
0100
0000
1000
0000
0010
0001
0000
0000
1110
0000
0000
0001
1000
0000
0100
0000
0001
0010
0000
0000
1101
0000
0000
0010
0100
0000
1000
0000
0010
0100
0000
0000
,
1011
0000
0000
0100
1000
0000
0010
0000
0100
1000
0000
0000
0111
0000
0000
1000
0100
0000
0001
0000
1000
0100
0000
0000
1011
0000
0000
0100
1000
0000
0010
0000
0100
1000
0000
0000
0111
0000
0000
1000
0100
0000
0001
0000
1000
0010
0000
0000
,
1101
0000
0000
0010
0100
0000
1000
0000
0010
0001
0000
0000
1110
0000
0000
0001
1000
0000
0100
0000
0001
0010
0000
0000
1101
0000
0000
0010
0100
0000
1000
0000
0010
0001
0000
0000
1110
0000
0000
0001
0010
0000
0100
0000
0001
1000
0000
0000
,
0111
0000
0100
1000
0001
0000
0010
0000
1000
0100
0010
0000
1011
0000
1000
0100
0010
0000
0001
0000
0100
1000
0001
0000
0111
0000
0100
1000
0001
0000
0010
0000
1000
0100
0010
0000
1011
0000
1000
0100
0010
0000
0001
0000
0100
0010
0001
0000
,
0111
0000
0000
1000
0010
0000
0100
0000
1000
0001
0000
0000
1110
0000
0000
0001
0100
0000
0010
0000
0001
1000
0000
0000
0111
0000
0000
1000
0010
0000
0100
0000
1000
0001
0000
0000
1110
0000
0000
0001
0100
0000
0010
0000
0001
0100
0000
0000
,
1011
0000
0000
0100
0010
0000
0001
0000
0100
0010
0000
0000
1101
0000
0000
0010
0100
0000
1000
0000
0010
0100
0000
0000
1011
0000
0000
0100
0010
0000
0001
0000
0100
0010
0000
0000
1101
0000
0000
0010
0100
0000
1000
0000
0010
0001
0000
0000
,
1110
0000
0000
0001
0100
0000
0010
0000
0001
1000
0000
0000
0111
0000
0000
1000
0010
0000
0100
0000
1000
0001
0000
0000
1110
0000
0000
0001
0100
0000
0010
0000
0001
1000
0000
0000
0111
0000
0000
1000
0001
0000
0100
0000
1000
0010
0000
0000
,
1101
0000
0100
0010
1000
0000
0001
0000
0010
0100
0001
0000
1011
0000
0010
0100
0001
0000
1000
0000
0100
0010
1000
0000
1101
0000
0100
0010
1000
0000
0001
0000
0010
0100
0001
0000
1011
0000
0010
0100
0001
0000
1000
0000
0100
0001
1000
0000
,
0111
0000
0000
1000
0001
0000
0010
0000
1000
0100
0000
0000
1011
0000
0000
0100
0010
0000
0001
0000
0100
1000
0000
0000
0111
0000
0000
1000
0001
0000
0010
0000
1000
0100
0000
0000
1011
0000
0000
0100
0010
0000
0001
0000
0100
0010
0000
0000
,
1101
0000
0000
0010
0001
0000
0100
0000
0010
0001
0000
0000
1110
0000
0000
0001
0010
0000
1000
0000
0001
0010
0000
0000
1101
0000
0000
0010
0001
0000
0100
0000
0010
0001
0000
0000
1110
0000
0000
0001
0010
0000
1000
0000
0001
0100
0000
0000
,
1110
0111
1110
0111
1101
1011
1101
1011
0111
1110
0111
1110
1011
1101
1011
1101
,
1111
1110
1111
1101
1111
1011
1111
0111
1111
1101
1111
1101
1111
1110
1111
1101
1111
1011
1111
0111
1111
1101
1111
1101
,
1000
0100
0010
0001
1000
0100
0010
0001
1000
0100
0010
0001
1000
0100
0010
0001
1000
0100
0010
0001
1000
0100
0010
0001
1110
0000
1100
0000
0011
0000
1100
0000
0011
0000
1100
0000
1111
0000
0101
0000
1010
0000
0101
0000
1010
0000
0101
0000
,
1111
0000
0011
0000
1100
0000
0011
0000
1100
0000
0011
0000
1111
0000
1010
0000
0101
0000
1010
0000
0101
0000
1010
0000
0001
0010
0100
1000
0001
0010
0100
1000
0001
0010
0100
1000
0001
0010
0100
1000
0001
0010
0100
1000
0001
0010
0100
1000
,
0111
0000
0000
0000
0000
0000
0000
0000
1001
0000
0000
0000
0000
0000
0000
0000
0110
0000
0000
0000
0000
0000
0000
0000
1001
0000
0000
0000
0000
0000
0000
0000
0110
0000
0000
0000
0000
0000
0000
0000
1001
0000
0000
0000
0000
0000
0000
0000
1111
0000
0000
0000
0000
0000
0000
0000
0110
0000
0000
0000
0000
0000
0000
0000
1001
0000
0000
0000
0000
0000
0000
0000
0110
0000
0000
0000
0000
0000
0000
0000
1001
0000
0000
0000
0000
0000
0000
0000
0110
0000
0000
0000
0000
0000
0000
0000
1111
0000
0000
0000
0000
0000
0011
0000
0000
0000
0000
0000
0110
0000
0000
0000
0000
0000
1100
0000
0000
0000
0000
0000
1111
0000
0000
0000
0000
0000
0000
0000
0000
0000
0000
0000
1110
0000
0000
0000
0000
0000
0000
0000
0000
0000
0000
0000
0111
0000
0000
0000
0000
0000
0000
0000
0000
0000
0000
0000
1110
0000
0000
0000
0000
0000
0000
0000
0000
0000
0000
0000
1111
0000
0000
0000
0000
0000
1100
0000
0000
0000
0000
0000
0110
0000
0000
0000
0000
0000
0011
0000
0000
0000
0000
0000
,
1111
1100
0011
1100
0011
1100
1111
0110
1001
0110
1001
0110
1111
0011
1100
0011
1100
0011
1111
0110
1001
0110
1001
0110
,
1111
1010
0101
1010
0101
1010
1111
1001
0110
1001
0110
1001
1111
0101
1010
0101
1010
0101
1111
1001
0110
1001
0110
1001
,
1111
0000
1100
0000
0110
0000
0011
0000
0110
0000
1100
0000
1111
0000
0000
1110
0000
0000
1101
0000
0000
1011
0000
0000
0111
0000
0000
1110
0000
0000
1111
0000
0000
0111
0000
0000
1110
0000
0000
0111
0000
0000
1111
0000
0000
0110
0000
0000
,
1000
0100
0010
0001
0010
0100
1000
0100
0010
0001
0010
0100
1000
0100
0010
0001
0010
0100
1000
0100
0010
0001
0010
0100
1011
0000
1010
0000
0101
0000
1010
0000
0101
0000
1010
0000
1111
0000
0101
0000
1010
0000
0101
0000
1010
0000
0101
0000
,
1111
1001
0110
1001
0110
1001
1111
0110
1001
0110
1001
0110
1111
1100
0011
1100
0011
1100
1111
0011
1100
0011
1100
0011
,
1111
0000
0000
0000
0000
0000
0000
0000
1001
0000
0000
0000
0000
0000
0000
0000
0110
0000
0000
0000
0000
0000
0000
0000
1001
0000
0000
0000
0000
0000
0000
0000
0110
0000
0000
0000
0000
0000
0000
0000
1001
0000
0000
0000
0000
0000
0000
0000
1111
0000
0000
0000
0000
0000
0000
0000
0110
0000
0000
0000
0000
0000
0000
0000
1001
0000
0000
0000
0000
0000
0000
0000
0110
0000
0000
0000
0000
0000
0000
0000
1001
0000
0000
0000
0000
0000
0000
0000
0110
0000
0000
0000
0000
0000
0000
0000
1111
0000
0000
0000
0000
0000
1010
0000
0000
0000
0000
0000
1001
0000
0000
0000
0000
0000
0101
0000
0000
0000
0000
0000
1111
0000
0000
0000
0000
0000
0000
0000
0000
0000
0000
0000
1101
0000
0000
0000
0000
0000
0000
0000
0000
0000
0000
0000
1011
0000
0000
0000
0000
0000
0000
0000
0000
0000
0000
0000
1101
0000
0000
0000
0000
0000
0000
0000
0000
0000
0000
0000
1111
0000
0000
0000
0000
0000
0101
0000
0000
0000
0000
0000
1001
0000
0000
0000
0000
0000
1010
0000
0000
0000
0000
0000
,
0100
0001
1000
0010
0100
0001
1000
0010
0100
0001
1000
0010
0100
0001
1000
0010
0100
0001
1000
0010
0100
0001
1000
0010
1101
0000
1100
0000
0110
0000
0011
0000
0110
0000
1100
0000
1111
0000
0011
0000
0110
0000
1100
0000
0110
0000
0011
0000
,
1111
0000
0110
0000
1001
0000
0110
0000
1001
0000
0110
0000
1111
0000
0000
1011
0000
0000
1111
0000
0000
1101
0000
0000
0010
1000
0001
0100
0010
1000
0001
0100
0010
1000
0001
0100
0010
1000
0001
0100
0010
1000
0001
0100
0010
1000
0001
0100
,
1011
1100
0101
1001
0101
1100
1111
0011
1010
1001
1010
0011
1111
0110
1001
0110
1001
0110
1001
0110
1001
0110
1001
0110
,
1111
0000
0000
0000
0000
0000
1111
0000
0000
0000
0000
0000
1111
0000
0000
0000
0000
0000
1111
0000
0000
0000
0000
0000
1101
0000
0000
1011
0000
0000
1101
0000
0000
1011
0000
0000
1101
0000
0000
0000
1111
0000
0000
0000
1111
0000
0000
0000
,
1110
0000
0000
0111
0000
0000
1110
0000
0000
0111
0000
0000
1110
0000
0000
0000
1111
0000
0000
0000
1111
0000
0000
0000
1011
0000
0000
1101
0000
0000
1011
0000
0000
1101
0000
0000
1011
0000
0000
0000
1111
0000
0000
0000
1111
0000
0000
0000
,
1101
0000
0000
1110
0000
0000
1101
0000
0000
1110
0000
0000
1101
0000
0000
0000
1111
0000
0000
0000
1111
0000
0000
0000
1011
0000
0000
0111
0000
0000
1011
0000
0000
0111
0000
0000
1011
0000
0000
0000
1111
0000
0000
0000
1111
0000
0000
0000
,
1110
0000
0000
1101
0000
0000
1110
0000
0000
1101
0000
0000
1110
0000
0000
0000
1111
0000
0000
0000
1111
0000
0000
0000
0111
0000
0000
1011
0000
0000
0111
0000
0000
1011
0000
0000
0111
0000
0000
0000
1111
0000
0000
0000
1111
0000
0000
0000
,
0111
0000
0000
1011
0000
0000
1101
0000
0000
1110
0000
0000
1101
0000
0000
0000
1111
0000
0000
0000
1111
0000
0000
0000
1110
0000
0000
1101
0000
0000
1011
0000
0000
0111
0000
0000
1011
0000
0000
0000
1111
0000
0000
0000
1111
0000
0000
0000
,
1101
1110
1101
1011
0111
0000
1111
0000
1111
0000
1111
0000
1111
0000
1111
0000
,
1111
0000
0000
0000
0000
0000
0000
0000
0000
0000
0000
0000
1111
0000
0000
0000
0000
0000
0000
0000
0000
0000
0000
0000
1111
0000
0000
0000
0000
0000
0000
0000
0000
0000
0000
0000
1111
0000
0000
0000
0000
0000
0000
0000
0000
0000
0000
0000
1111
0000
0000
0000
0000
0000
0000
0000
0000
0000
0000
0000
1111
0000
0000
0000
0000
0000
0000
0000
0000
0000
0000
0000
1111
0000
0000
0000
0000
0000
0000
0000
0000
0000
0000
0000
1111
0000
0000
0000
0000
0000
0000
0000
0000
0000
0000
0000
1011
0000
0000
0000
0000
0000
1101
0000
0000
0000
0000
0000
1011
0000
0000
0000
0000
0000
1101
0000
0000
0000
0000
0000
1011
0000
0000
0000
0000
0000
1101
0000
0000
0000
0000
0000
1011
0000
0000
0000
0000
0000
1101
0000
0000
0000
0000
0000
1011
0000
0000
0000
0000
0000
0000
0000
1111
0000
0000
0000
0000
0000
0000
0000
1111
0000
0000
0000
0000
0000
0000
0000
1111
0000
0000
0000
0000
0000
0000
0000
1111
0000
0000
0000
0000
0000
0000
0000
1111
0000
0000
0000
0000
0000
0000
0000
,
0111
0000
0000
0000
0000
0000
1110
0000
0000
0000
0000
0000
0111
0000
0000
0000
0000
0000
1110
0000
0000
0000
0000
0000
0111
0000
0000
0000
0000
0000
1110
0000
0000
0000
0000
0000
0111
0000
0000
0000
0000
0000
1110
0000
0000
0000
0000
0000
0111
0000
0000
0000
0000
0000
0000
0000
1111
0000
0000
0000
0000
0000
0000
0000
1111
0000
0000
0000
0000
0000
0000
0000
1111
0000
0000
0000
0000
0000
0000
0000
1111
0000
0000
0000
0000
0000
0000
0000
1111
0000
0000
0000
0000
0000
0000
0000
1101
0000
0000
0000
0000
0000
1011
0000
0000
0000
0000
0000
1101
0000
0000
0000
0000
0000
1011
0000
0000
0000
0000
0000
1101
0000
0000
0000
0000
0000
1011
0000
0000
0000
0000
0000
1101
0000
0000
0000
0000
0000
1011
0000
0000
0000
0000
0000
1101
0000
0000
0000
0000
0000
0000
0000
1111
0000
0000
0000
0000
0000
0000
0000
1111
0000
0000
0000
0000
0000
0000
0000
1111
0000
0000
0000
0000
0000
0000
0000
1111
0000
0000
0000
0000
0000
0000
0000
1111
0000
0000
0000
0000
0000
0000
0000
,
1011
0000
0000
0000
0000
0000
0111
0000
0000
0000
0000
0000
1011
0000
0000
0000
0000
0000
0111
0000
0000
0000
0000
0000
1011
0000
0000
0000
0000
0000
0111
0000
0000
0000
0000
0000
1011
0000
0000
0000
0000
0000
0111
0000
0000
0000
0000
0000
1011
0000
0000
0000
0000
0000
0000
0000
1111
0000
0000
0000
0000
0000
0000
0000
1111
0000
0000
0000
0000
0000
0000
0000
1111
0000
0000
0000
0000
0000
0000
0000
1111
0000
0000
0000
0000
0000
0000
0000
1111
0000
0000
0000
0000
0000
0000
0000
1101
0000
0000
0000
0000
0000
1110
0000
0000
0000
0000
0000
1101
0000
0000
0000
0000
0000
1110
0000
0000
0000
0000
0000
1101
0000
0000
0000
0000
0000
1110
0000
0000
0000
0000
0000
1101
0000
0000
0000
0000
0000
1110
0000
0000
0000
0000
0000
1101
0000
0000
0000
0000
0000
0000
0000
1111
0000
0000
0000
0000
0000
0000
0000
1111
0000
0000
0000
0000
0000
0000
0000
1111
0000
0000
0000
0000
0000
0000
0000
1111
0000
0000
0000
0000
0000
0000
0000
1111
0000
0000
0000
0000
0000
0000
0000
,
0111
0000
0000
0000
0000
0000
1011
0000
0000
0000
0000
0000
0111
0000
0000
0000
0000
0000
1011
0000
0000
0000
0000
0000
0111
0000
0000
0000
0000
0000
1011
0000
0000
0000
0000
0000
0111
0000
0000
0000
0000
0000
1011
0000
0000
0000
0000
0000
0111
0000
0000
0000
0000
0000
0000
0000
1111
0000
0000
0000
0000
0000
0000
0000
1111
0000
0000
0000
0000
0000
0000
0000
1111
0000
0000
0000
0000
0000
0000
0000
1111
0000
0000
0000
0000
0000
0000
0000
1111
0000
0000
0000
0000
0000
0000
0000
1110
0000
0000
0000
0000
0000
1001
0000
0000
0000
0000
0000
1110
0000
0000
0000
0000
0000
1101
0000
0000
0000
0000
0000
1110
0000
0000
0000
0000
0000
1101
0000
0000
0000
0000
0000
1110
0000
0000
0000
0000
0000
1101
0000
0000
0000
0000
0000
1110
0000
0000
0000
0000
0000
0000
0000
1111
0000
0000
0000
0000
0000
0000
0000
1111
0000
0000
0000
0000
0000
0000
0000
1111
0000
0000
0000
0000
0000
0000
0000
1111
0000
0000
0000
0000
0000
0000
0000
1111
0000
0000
0000
0000
0000
0000
0000
,
1110
0000
0000
0000
0000
0000
1101
0000
0000
0000
0000
0000
1011
0000
0000
0000
0000
0000
0111
0000
0000
0000
0000
0000
1011
0000
0000
0000
0000
0000
1101
0000
0000
0000
0000
0000
1110
0000
0000
0000
0000
0000
1101
0000
0000
0000
0000
0000
1011
0000
0000
0000
0000
0000
0000
0000
1111
0000
0000
0000
0000
0000
0000
0000
1111
0000
0000
0000
0000
0000
0000
0000
1111
0000
0000
0000
0000
0000
0000
0000
1111
0000
0000
0000
0000
0000
0000
0000
1111
0000
0000
0000
0000
0000
0000
0000
0111
0000
0000
0000
0000
0000
1011
0000
0000
0000
0000
0000
1101
0000
0000
0000
0000
0000
1110
0000
0000
0000
0000
0000
1101
0000
0000
0000
0000
0000
1011
0000
0000
0000
0000
0000
0111
0000
0000
0000
0000
0000
1011
0000
0000
0000
0000
0000
1101
0000
0000
0000
0000
0000
0000
0000
0000
0000
0000
0000
1111
0000
0000
0000
0000
0000
0000
0000
0000
0000
0000
0000
1111
0000
0000
0000
0000
0000
0000
0000
0000
0000
0000
0000
1111
0000
0000
0000
0000
0000
0000
0000
0000
0000
0000
0000
,
1111
0000
0000
0000
0000
0000
0000
0000
0000
0000
0000
0000
1111
0000
0000
0000
0000
0000
0000
0000
0000
0000
0000
0000
1111
0000
0000
0000
0000
0000
0000
0000
0000
0000
0000
0000
1111
0000
0000
0000
0000
0000
0000
0000
0000
0000
0000
0000
1111
0000
0000
0000
0000
0000
0000
0000
1111
0000
0000
0000
0000
0000
0000
0000
1111
0000
0000
0000
0000
0000
0000
0000
1111
0000
0000
0000
0000
0000
0000
0000
1111
0000
0000
0000
0000
0000
0000
0000
1111
0000
0000
0000
0000
0000
0000
0000
1111
0000
0000
0000
0000
0000
1111
0000
0000
0000
0000
0000
1111
0000
0000
0000
0000
0000
1111
0000
0000
0000
0000
0000
1111
0000
0000
0000
0000
0000
1111
0000
0000
0000
0000
0000
1111
0000
0000
0000
0000
0000
1111
0000
0000
0000
0000
0000
1111
0000
0000
0000
1111
0000
0000
0000
1111
0000
0000
0000
1111
0000
0000
0000
1111
0000
0000
0000
1111
0000
0000
0000
1111
0000
0000
0000
1111
0000
0000
0000
1111
0000
0000
0000
1111
0000
0000
0000
1111
0000
0000
0000
1111
0000
0000
0000
,
2222
0333
0010
0000
0001
0000
0010
0000
0100
0000
0010
0000
0001
0000
0010
0000
0100
0000
0010
0000
0001
0000
0010
0000
0100
0000
0010
0000
0001
0000
0010
0000
0100
0000
0010
0000
0001
0000
0010
0000
0100
0000
0010
0000
0001
0000
0010
0000
0100
0000
0010
0000
0001
0000
0010
0000
0100
0000
0010
0000
0001
0000
0010
0000
,
0100
0010
0001
0010
0100
0010
0001
0010
0100
0010
0001
0010
0100
0010
0001
0010
0100
0010
0001
0010
0100
0010
0001
0010
0100
0010
0001
0010
0100
0010
0001
0010
,
0100
0010
0001
0010
0100
0010
0001
0010
0100
0010
0001
0010
0100
0010
0001
0010
0100
0010
0001
0010
0100
0010
0001
0010
0100
0010
0001
0010
0100
0010
0001
0010
,
0101
0010
0010
0101
0010
0010
0101
0010
0010
0101
0010
0010
0101
0010
0101
0010
0101
0010
0101
0000
0111
0000
0111
0000
,
3222
0330
0100
0000
1000
0000
0100
0000
0010
0000
0100
0000
1000
0000
0100
0000
0010
0000
0100
0000
1000
0000
0100
0000
0010
0000
0100
0000
1000
0000
0100
0000
0010
0000
0100
0000
1000
0000
0100
0000
0010
0000
0100
0000
1000
0000
0100
0000
0010
0000
0100
0000
1000
0000
0100
0000
0010
0000
0100
0000
1000
0000
0100
0000
,
0010
0100
1000
0100
0010
0100
1000
0100
0010
0100
1000
0100
0010
0100
1000
0100
0010
0100
1000
0100
0010
0100
1000
0100
0010
0100
1000
0100
0010
0100
1000
0100
,
0010
0100
1000
0100
0010
0100
1000
0100
0010
0100
1000
0100
0010
0100
1000
0100
0010
0100
1000
0100
0010
0100
1000
0100
0010
0100
1000
0100
0010
0100
1000
0100
,
1010
0100
0100
1010
0100
0100
1010
0100
0100
1010
0100
0100
1010
0100
1010
0100
1010
0100
1010
0000
1110
0000
1110
0000
,
2223
3030
1000
0000
0010
0000
1000
0000
0001
0000
1000
0000
0010
0000
1000
0000
0001
0000
1000
0000
0010
0000
1000
0000
0001
0000
1000
0000
0010
0000
1000
0000
0001
0000
1000
0000
0010
0000
1000
0000
0001
0000
1000
0000
0010
0000
1000
0000
0001
0000
1000
0000
0010
0000
1000
0000
0001
0000
1000
0000
0010
0000
1000
0000
,
0001
1000
0010
1000
0001
1000
0010
1000
0001
1000
0010
1000
0001
1000
0010
1000
0001
1000
0010
1000
0001
1000
0010
1000
0001
1000
0010
1000
0001
1000
0010
1000
,
0001
1000
0010
1000
0001
1000
0010
1000
0001
1000
0010
1000
0001
1000
0010
1000
0001
1000
0010
1000
0001
1000
0010
1000
0001
1000
0010
1000
0001
1000
0010
1000
,
0011
0000
1000
0000
1000
0000
0011
0000
1000
0000
1000
0000
0011
0000
1000
0000
1000
0000
0011
0000
1000
0000
1000
0000
0011
0000
1000
0000
0011
0000
1000
0000
0011
0000
1000
0000
0011
0000
0000
1011
0000
0000
1011
0000
0000
1011
0000
0000
,
2322
3003
0001
0000
0100
0000
0001
0000
1000
0000
0001
0000
0100
0000
0001
0000
1000
0000
0001
0000
0100
0000
0001
0000
1000
0000
0001
0000
0100
0000
0001
0000
1000
0000
0001
0000
0100
0000
0001
0000
1000
0000
0001
0000
0100
0000
0001
0000
1000
0000
0001
0000
0100
0000
0001
0000
1000
0000
0001
0000
0100
0000
0001
0000
,
1000
0001
0100
0001
1000
0001
0100
0001
1000
0001
0100
0001
1000
0001
0100
0001
1000
0001
0100
0001
1000
0001
0100
0001
1000
0001
0100
0001
1000
0001
0100
0001
,
2202
3333
1100
0000
0011
0000
1100
0000
2222
3333
1010
0000
0101
0000
1010
0000
2222
3333
0011
0000
1100
0000
0011
0000
2222
3333
0101
0000
1010
0000
0101
0000
2222
3333
1100
0000
0011
0000
1100
0000
2222
3333
1010
0000
0101
0000
1010
0000
,
2222
3333
0011
0000
1100
0000
0011
0000
2222
3333
0101
0000
1010
0000
0101
0000
2222
3333
0110
0000
1001
0000
0110
0000
2222
0000
0000
0000
0000
0000
0000
0000
0000
0000
0000
0000
0000
0000
0000
0000
0000
0000
0000
0000
0000
0000
0000
0000
,
0000
0000
0000
0000
,
0000
0000
0000
0000
,
0000
0000
0000
0000
,
3333
0000
0000
0000
,
0111
0000
0001
1000
0010
0000
0100
0000
0010
1000
0001
0000
0111
0000
0000
0000
0000
0000
1111
0000
0000
0000
0000
0000
1101
0000
1000
0010
0001
0000
0100
0000
0001
1000
0010
0000
0111
0000
0010
1000
0001
0000
0100
0000
0001
0010
1000
0000
,
1101
0000
1000
0010
0001
0000
0100
0000
0001
1000
0010
0000
0111
0000
0010
1000
0001
0000
0100
0000
0001
0010
1000
0000
1101
0000
1000
0010
0001
0000
0100
0000
0001
1000
0010
0000
0111
0000
1000
0000
0001
0000
1110
0000
0001
0000
1000
0000
,
1111
0000
0000
0000
0000
0000
1111
0000
0000
0000
0000
0000
1011
0000
0001
0100
1000
0000
0011
0000
1000
0100
0001
0000
1011
0000
0001
0100
1000
0000
1001
0000
1000
0100
0001
0000
1011
0000
0000
0000
0000
0000
1111
0000
0000
0000
0000
0000
,
1101
0000
1000
0010
0001
0000
1001
0000
0001
0010
1000
0000
1101
0000
1000
0010
0001
0000
1001
0000
0001
0010
1000
0000
1101
0000
0000
0000
0000
0000
1111
0000
0000
0000
0000
0000
1110
0000
1000
0001
0010
0000
0100
0000
0001
0010
0100
0000
,
1101
0000
1000
0010
0100
0000
1000
0000
0010
0100
0001
0000
1011
0000
1000
0100
0010
0000
0001
0000
0100
1000
0001
0000
0111
0000
0001
1000
0100
0000
0011
0000
0010
0100
1000
0000
1011
0000
0001
0100
0010
0000
1000
0000
0100
0010
1000
0000
,
1101
0000
1111
0000
0111
1000
0110
1000
0111
1000
0110
1000
0111
0000
1111
0000
,
1110
0001
1110
0000
1111
0000
1111
0000
1101
0010
1000
0100
1011
0100
0001
0010
,
1101
0000
0010
0000
0001
0000
0100
0000
1011
0000
0100
0000
1000
0000
0001
0000
1110
0000
0000
0000
0000
0000
0111
0000
0000
0000
0000
1111
0000
0000
0000
0000
,
1111
0000
0000
0000
0000
0000
0111
0000
0000
0000
0000
0000
1110
0000
0000
0000
0000
0000
0111
0000
0000
0000
0000
0000
1110
0000
0000
0000
0000
0000
0111
0000
0000
0000
0000
0000
1110
0000
0000
0000
0000
0000
0111
0000
0000
0000
0000
0000
1110
0000
0000
0000
0000
0000
0111
0000
0000
0000
0000
0000
1110
0000
0000
0000
0000
0000
0111
0000
0000
0000
0000
0000
1110
0000
0000
0000
0000
0000
0111
0000
0000
0000
0000
0000
1110
0000
0000
0000
0000
0000
0111
0000
0000
0000
0000
0000
1111
0000
0000
0000
0000
0000
0000
0000
0000
0000
0000
0000
0000
0000
0000
0000
1111
0000
0000
0000
0000
0000
0000
0000
0000
0000
0000
0000
0000
0000
0000
0000
1111
0000
0000
0000
0000
0000
0000
0000
0000
0000
0000
0000
0000
0000
0000
0000
1111
0000
0000
0000
0000
0000
1011
0000
0000
0000
0000
0000
1101
0000
0000
0000
0000
0000
1011
0000
0000
0000
0000
0000
1101
0000
0000
0000
0000
0000
1011
0000
0000
0000
0000
0000
1101
0000
0000
0000
0000
0000
1011
0000
0000
0000
0000
0000
,
1101
0000
0000
0000
0000
0000
1011
0000
0000
0000
0000
0000
1101
0000
0000
0000
0000
0000
1011
0000
0000
0000
0000
0000
1101
0000
0000
0000
0000
0000
1011
0000
0000
0000
0000
0000
1101
0000
0000
0000
0000
0000
1011
0000
0000
0000
0000
0000
1111
0000
0000
0000
0000
0000
0000
0000
0000
0000
0000
0000
0000
0000
0000
0000
1111
0000
0000
0000
0000
0000
0000
0000
0000
0000
0000
0000
0000
0000
0000
0000
1111
0000
0000
0000
0000
0000
0000
0000
0000
0000
0000
0000
0000
0000
0000
0000
1111
0000
0000
0000
0000
0000
1110
0000
0000
0000
0000
0000
0111
0000
0000
0000
0000
0000
1110
0000
0000
0000
0000
0000
0111
0000
0000
0000
0000
0000
1110
0000
0000
0000
0000
0000
0111
0000
0000
0000
0000
0000
1110
0000
0000
0000
0000
0000
0111
0000
0000
0000
0000
0000
1110
0000
0000
0000
0000
0000
0111
0000
0000
0000
0000
0000
1110
0000
0000
0000
0000
0000
0111
0000
0000
0000
0000
0000
1110
0000
0000
0000
0000
0000
0111
0000
0000
0000
0000
0000
1110
0000
0000
0000
0000
0000
,
1111
0000
0000
0000
0000
0000
0000
0000
0000
0000
0000
0000
0000
0000
0000
0000
1111
0000
0000
0000
0000
0000
0000
0000
0000
0000
0000
0000
0000
0000
0000
0000
1111
0000
0000
0000
0000
0000
0000
0000
0000
0000
0000
0000
0000
0000
0000
0000
1111
0000
0000
0000
0000
0000
1110
0000
0000
0000
0000
0000
0111
0000
0000
0000
0000
0000
1110
0000
0000
0000
0000
0000
0111
0000
0000
0000
0000
0000
1110
0000
0000
0000
0000
0000
0111
0000
0000
0000
0000
0000
1110
0000
0000
0000
0000
0000
0111
0000
0000
0000
0000
0000
1110
0000
0000
0000
0000
0000
0111
0000
0000
0000
0000
0000
1110
0000
0000
0000
0000
0000
0111
0000
0000
0000
0000
0000
1110
0000
0000
0000
0000
0000
0111
0000
0000
0000
0000
0000
1110
0000
0000
0000
0000
0000
1111
0000
0000
0000
0000
0000
0000
0000
0000
0000
0000
0000
0000
0000
0000
0000
1111
0000
0000
0000
0000
0000
0000
0000
0000
0000
0000
0000
0000
0000
0000
0000
1111
0000
0000
0000
0000
0000
0000
0000
0000
0000
0000
0000
0000
0000
0000
0000
,
1111
0000
0000
0000
0000
0000
0111
0000
0000
0000
0000
0000
1110
0000
0000
0000
0000
0000
0111
0000
0000
0000
0000
0000
1110
0000
0000
0000
0000
0000
0111
0000
0000
0000
0000
0000
1110
0000
0000
0000
0000
0000
0111
0000
0000
0000
0000
0000
1110
0000
0000
0000
0000
0000
0111
0000
0000
0000
0000
0000
1110
0000
0000
0000
0000
0000
0111
0000
0000
0000
0000
0000
1110
0000
0000
0000
0000
0000
0111
0000
0000
0000
0000
0000
1110
0000
0000
0000
0000
0000
0111
0000
0000
0000
0000
0000
1111
0000
0000
0000
0000
0000
0000
0000
0000
0000
0000
0000
0000
0000
0000
0000
1111
0000
0000
0000
0000
0000
0000
0000
0000
0000
0000
0000
0000
0000
0000
0000
1111
0000
0000
0000
0000
0000
0000
0000
0000
0000
0000
0000
0000
0000
0000
0000
1111
0000
0000
0000
0000
0000
1101
0000
0000
0000
0000
0000
1011
0000
0000
0000
0000
0000
1101
0000
0000
0000
0000
0000
1011
0000
0000
0000
0000
0000
1101
0000
0000
0000
0000
0000
1011
0000
0000
0000
0000
0000
1101
0000
0000
0000
0000
0000
,
1011
0000
0000
0000
0000
0000
1101
0000
0000
0000
0000
0000
1011
0000
0000
0000
0000
0000
1101
0000
0000
0000
0000
0000
1011
0000
0000
0000
0000
0000
1101
0000
0000
0000
0000
0000
1011
0000
0000
0000
0000
0000
1101
0000
0000
0000
0000
0000
1111
0000
0000
0000
0000
0000
0000
0000
0000
0000
0000
0000
0000
0000
0000
0000
1111
0000
0000
0000
0000
0000
0000
0000
0000
0000
0000
0000
0000
0000
0000
0000
1111
0000
0000
0000
0000
0000
0000
0000
0000
0000
0000
0000
0000
0000
0000
0000
1111
0000
0000
0000
0000
0000
1110
0000
0000
0000
0000
0000
0111
0000
0000
0000
0000
0000
1110
0000
0000
0000
0000
0000
0111
0000
0000
0000
0000
0000
1110
0000
0000
0000
0000
0000
0111
0000
0000
0000
0000
0000
1110
0000
0000
0000
0000
0000
0111
0000
0000
0000
0000
0000
1110
0000
0000
0000
0000
0000
0111
0000
0000
0000
0000
0000
1110
0000
0000
0000
0000
0000
0111
0000
0000
0000
0000
0000
1110
0000
0000
0000
0000
0000
0111
0000
0000
0000
0000
0000
1110
0000
0000
0000
0000
0000
,
1111
0000
0000
0000
0000
0000
0000
0000
0000
0000
0000
0000
0000
0000
0000
0000
1111
0000
0000
0000
0000
0000
0000
0000
0000
0000
0000
0000
0000
0000
0000
0000
1111
0000
0000
0000
0000
0000
0000
0000
0000
0000
0000
0000
0000
0000
0000
0000
1111
0000
0000
0000
0000
0000
1011
0000
0000
0000
0000
0000
1101
0000
0000
0000
0000
0000
1011
0000
0000
0000
0000
0000
1101
0000
0000
0000
0000
0000
1011
0000
0000
0000
0000
0000
1101
0000
0000
0000
0000
0000
1011
0000
0000
0000
0000
0000
1101
0000
0000
0000
0000
0000
1011
0000
0000
0000
0000
0000
1101
0000
0000
0000
0000
0000
1011
0000
0000
0000
0000
0000
1101
0000
0000
0000
0000
0000
1011
0000
0000
0000
0000
0000
1101
0000
0000
0000
0000
0000
1011
0000
0000
0000
0000
0000
1111
0000
0000
0000
0000
0000
0000
0000
0000
0000
0000
0000
0000
0000
0000
0000
1111
0000
0000
0000
0000
0000
0000
0000
0000
0000
0000
0000
0000
0000
0000
0000
1111
0000
0000
0000
0000
0000
0000
0000
0000
0000
0000
0000
0000
0000
0000
0000
,
1111
0000
0000
0000
0000
0000
1110
0000
0000
0000
0000
0000
1101
0000
0000
0000
0000
0000
1011
0000
0000
0000
0000
0000
0111
0000
0000
0000
0000
0000
1011
0000
0000
0000
0000
0000
1101
0000
0000
0000
0000
0000
1110
0000
0000
0000
0000
0000
1101
0000
0000
0000
0000
0000
1011
0000
0000
0000
0000
0000
0111
0000
0000
0000
0000
0000
1011
0000
0000
0000
0000
0000
1101
0000
0000
0000
0000
0000
1110
0000
0000
0000
0000
0000
1101
0000
0000
0000
0000
0000
1011
0000
0000
0000
0000
0000
1111
0000
0000
0000
0000
0000
0000
0000
0000
0000
0000
0000
0000
0000
0000
0000
1111
0000
0000
0000
0000
0000
0000
0000
0000
0000
0000
0000
0000
0000
0000
0000
1111
0000
0000
0000
0000
0000
0000
0000
0000
0000
0000
0000
0000
0000
0000
0000
1111
0000
0000
0000
0000
0000
0111
0000
0000
0000
0000
0000
1011
0000
0000
0000
0000
0000
1101
0000
0000
0000
0000
0000
1110
0000
0000
0000
0000
0000
1101
0000
0000
0000
0000
0000
1011
0000
0000
0000
0000
0000
0111
0000
0000
0000
0000
0000
,
1011
1101
1110
1101
1011
0111
1011
1101
1110
1101
1011
0111
1011
1101
1110
1101
1011
0111
1011
1101
1110
1101
1011
0111
1011
1101
1110
1101
1011
0111
1011
1101
,
1100
0110
0011
0110
1100
0110
0011
0110
1010
1001
0101
1001
1010
1001
0101
1001
0011
0110
1100
0110
0011
0110
1100
0110
0101
1001
1010
1001
0101
1001
1010
1001
,
0110
1001
0110
1001
0110
1001
0110
1001
1111
0000
1111
0000
1111
0000
0000
0000
1111
0000
0000
0000
1111
0000
1111
0000
1111
0000
0000
0000
1111
0000
0000
0000
,
0011
0110
1100
0110
0011
0110
1100
0110
0101
1001
1010
1001
0101
1001
1010
1001
1100
0110
0011
0110
1100
0110
0011
0110
1010
1001
0101
1001
1010
1001
0101
1001
,
0110
1001
0110
1001
0110
1001
0110
1001
1111
0000
1111
0000
1111
0000
0000
0000
1111
0000
0000
0000
1111
0000
1111
0000
1111
0000
0000
0000
1111
0000
0000
0000
,
1010
1001
0101
1001
1010
1001
0101
1001
0011
0110
1100
0110
0011
0110
1100
0110
0101
1001
1010
1001
0101
1001
1010
1001
1100
0110
0011
0110
1100
0110
0011
0110
,
0101
1001
1010
1001
0101
1001
1010
1001
1100
0110
0011
0110
1100
0110
0011
0110
1010
1001
0101
1001
1010
1001
0101
1001
0011
0110
1100
0110
0011
0110
1100
0110
,
1010
1001
0101
1001
1010
1001
0101
1001
0011
0110
1100
0110
0011
0110
1100
0110
0101
1001
1010
1001
0101
1001
1010
1001
1100
0110
0011
0110
1100
0110
0011
0110
,
1001
0110
1001
0110
1001
0110
1001
0110
1111
0000
1111
0000
1111
0000
0000
0000
1111
0000
0000
0000
1111
0000
1111
0000
1111
0000
0000
0000
1111
0000
0000
0000
,
1000
0000
0000
0000
0000
0000
0100
0000
0001
0000
0000
0000
0010
0000
0000
0000
0001
0000
0100
0000
0000
0000
0000
0000
1000
0000
0000
0000
0000
0000
0100
0000
0001
0000
0000
0000
0010
0000
0000
0000
0001
0000
0100
0000
0000
0000
0000
0000
1000
0000
0000
0000
0000
0000
0100
0000
0001
0000
0000
0000
0010
0000
0000
0000
0001
0000
0100
0000
0000
0000
0000
0000
1000
0000
0000
0000
0000
0000
0100
0000
0001
0000
0000
0000
0010
0000
0000
0000
0001
0000
0100
0000
0000
0000
0000
0000
1000
0000
0000
0000
0000
0000
0100
0000
0001
0000
0000
0000
0010
0000
0000
0000
0001
0000
0100
0000
0000
0000
0000
0000
1000
0000
0000
0000
0000
0000
0100
0000
0001
0000
0000
0000
0010
0000
0000
0000
0001
0000
0100
0000
0000
0000
0000
0000
1000
0000
0000
0000
0000
0000
0100
0000
0001
0000
0000
0000
0010
0000
0000
0000
0001
0000
0100
0000
0000
0000
0000
0000
1000
0000
0000
0000
0000
0000
0100
0000
0001
0000
0000
0000
0010
0000
0000
0000
0001
0000
0100
0000
0000
0000
0000
0000
,
1000
0000
0000
0000
0000
0000
0010
0000
0001
0000
0000
0000
0100
0000
0000
0000
0001
0000
0010
0000
0000
0000
0000
0000
1000
0000
0000
0000
0000
0000
0010
0000
0001
0000
0000
0000
0100
0000
0000
0000
0001
0000
0010
0000
0000
0000
0000
0000
1000
0000
0000
0000
0000
0000
0010
0000
0001
0000
0000
0000
0100
0000
0000
0000
0001
0000
0010
0000
0000
0000
0000
0000
1000
0000
0000
0000
0000
0000
0010
0000
0001
0000
0000
0000
0100
0000
0000
0000
0001
0000
0010
0000
0000
0000
0000
0000
1000
0000
0000
0000
0000
0000
0010
0000
0001
0000
0000
0000
0100
0000
0000
0000
0001
0000
0010
0000
0000
0000
0000
0000
1000
0000
0000
0000
0000
0000
0010
0000
0001
0000
0000
0000
0100
0000
0000
0000
0001
0000
0010
0000
0000
0000
0000
0000
1000
0000
0000
0000
0000
0000
0010
0000
0001
0000
0000
0000
0100
0000
0000
0000
0001
0000
0010
0000
0000
0000
0000
0000
1000
0000
0000
0000
0000
0000
0010
0000
0001
0000
0000
0000
0100
0000
0000
0000
0001
0000
0010
0000
0000
0000
0000
0000
,
0001
0000
0000
0000
0000
0000
0010
0000
1000
0000
0000
0000
0100
0000
0000
0000
1000
0000
0010
0000
0000
0000
0000
0000
0001
0000
0000
0000
0000
0000
0010
0000
1000
0000
0000
0000
0100
0000
0000
0000
1000
0000
0010
0000
0000
0000
0000
0000
0001
0000
0000
0000
0000
0000
0010
0000
1000
0000
0000
0000
0100
0000
0000
0000
1000
0000
0010
0000
0000
0000
0000
0000
0001
0000
0000
0000
0000
0000
0010
0000
1000
0000
0000
0000
0100
0000
0000
0000
1000
0000
0010
0000
0000
0000
0000
0000
0001
0000
0000
0000
0000
0000
0010
0000
1000
0000
0000
0000
0100
0000
0000
0000
1000
0000
0010
0000
0000
0000
0000
0000
0001
0000
0000
0000
0000
0000
0010
0000
1000
0000
0000
0000
0100
0000
0000
0000
1000
0000
0010
0000
0000
0000
0000
0000
0001
0000
0000
0000
0000
0000
0010
0000
1000
0000
0000
0000
0100
0000
0000
0000
1000
0000
0010
0000
0000
0000
0000
0000
0001
0000
0000
0000
0000
0000
0010
0000
1000
0000
0000
0000
0100
0000
0000
0000
1000
0000
0010
0000
0000
0000
0000
0000
,
0001
0000
0000
0000
0000
0000
0100
0000
1000
0000
0000
0000
0010
0000
0000
0000
1000
0000
0100
0000
0000
0000
0000
0000
0001
0000
0000
0000
0000
0000
0100
0000
1000
0000
0000
0000
0010
0000
0000
0000
1000
0000
0100
0000
0000
0000
0000
0000
0001
0000
0000
0000
0000
0000
0100
0000
1000
0000
0000
0000
0010
0000
0000
0000
1000
0000
0100
0000
0000
0000
0000
0000
0001
0000
0000
0000
0000
0000
0100
0000
1000
0000
0000
0000
0010
0000
0000
0000
1000
0000
0100
0000
0000
0000
0000
0000
0001
0000
0000
0000
0000
0000
0100
0000
1000
0000
0000
0000
0010
0000
0000
0000
1000
0000
0100
0000
0000
0000
0000
0000
0001
0000
0000
0000
0000
0000
0100
0000
1000
0000
0000
0000
0010
0000
0000
0000
1000
0000
0100
0000
0000
0000
0000
0000
0001
0000
0000
0000
0000
0000
0100
0000
1000
0000
0000
0000
0010
0000
0000
0000
1000
0000
0100
0000
0000
0000
0000
0000
0001
0000
0000
0000
0000
0000
0100
0000
1000
0000
0000
0000
0010
0000
0000
0000
1000
0000
0100
0000
0000
0000
0000
0000
,
0001
0000
0000
0000
0000
0000
0010
0000
1000
0000
0000
0000
0100
0000
0000
0000
0010
0000
1000
0000
0000
0000
0000
0000
0001
0000
0000
0000
0000
0000
0010
0000
1000
0000
0000
0000
0100
0000
0000
0000
0010
0000
1000
0000
0000
0000
0000
0000
0001
0000
0000
0000
0000
0000
0010
0000
1000
0000
0000
0000
0100
0000
0000
0000
0010
0000
1000
0000
0000
0000
0000
0000
0001
0000
0000
0000
0000
0000
0010
0000
1000
0000
0000
0000
0100
0000
0000
0000
0010
0000
1000
0000
0000
0000
0000
0000
0001
0000
0000
0000
0000
0000
1000
0000
0010
0000
0000
0000
0100
0000
0000
0000
1000
0000
0010
0000
0000
0000
0000
0000
0001
0000
0000
0000
0000
0000
1000
0000
0010
0000
0000
0000
0100
0000
0000
0000
1000
0000
0010
0000
0000
0000
0000
0000
0001
0000
0000
0000
0000
0000
1000
0000
0010
0000
0000
0000
0100
0000
0000
0000
1000
0000
0010
0000
0000
0000
0000
0000
0001
0000
0000
0000
0000
0000
1000
0000
0010
0000
0000
0000
0100
0000
0000
0000
1000
0000
0010
0000
0000
0000
0000
0000
,
1000
0000
0000
0000
0000
0000
0100
0000
0001
0000
0000
0000
0010
0000
0000
0000
0100
0000
0001
0000
0000
0000
0000
0000
1000
0000
0000
0000
0000
0000
0100
0000
0001
0000
0000
0000
0010
0000
0000
0000
0100
0000
0001
0000
0000
0000
0000
0000
1000
0000
0000
0000
0000
0000
0100
0000
0001
0000
0000
0000
0010
0000
0000
0000
0100
0000
0001
0000
0000
0000
0000
0000
1000
0000
0000
0000
0000
0000
0100
0000
0001
0000
0000
0000
0010
0000
0000
0000
0100
0000
0001
0000
0000
0000
0000
0000
1000
0000
0000
0000
0000
0000
0001
0000
0100
0000
0000
0000
0010
0000
0000
0000
0001
0000
0100
0000
0000
0000
0000
0000
1000
0000
0000
0000
0000
0000
0001
0000
0100
0000
0000
0000
0010
0000
0000
0000
0001
0000
0100
0000
0000
0000
0000
0000
1000
0000
0000
0000
0000
0000
0001
0000
0100
0000
0000
0000
0010
0000
0000
0000
0001
0000
0100
0000
0000
0000
0000
0000
1000
0000
0000
0000
0000
0000
0001
0000
0100
0000
0000
0000
0010
0000
0000
0000
0001
0000
0100
0000
0000
0000
0000
0000
,
2222
0000
0000
0333
0000
0000
0101
0000
0000
0000
0000
0000
0110
0000
0000
0000
0111
0000
0101
0000
0000
0000
0000
0000
0110
0000
0000
0000
0000
0000
0101
0000
0111
0000
0000
0000
0110
0000
0000
0000
0000
0000
0101
0000
0000
0000
0000
0000
0111
0000
0000
0000
0000
0000
0101
0000
0000
0000
0000
0000
0110
0000
0000
0000
3111
0000
0000
0000
0000
0000
0000
0000
0000
0000
0000
0000
0000
0000
0000
0000
0000
0000
0000
0000
0000
0000
0000
0000
0000
0000
0000
0000
0000
0000
0000
0000
0000
0000
0000
0000
0000
0000
0000
0000
0000
0000
0000
0000
0000
0000
0000
0000
0000
0000
0000
0000
0000
0000
0000
0000
0000
0000
0000
0000
0000
0000
0000
0000
1111
0000
0000
0000
0000
0000
0000
0000
0000
0000
0000
0000
0000
0000
0000
0000
0000
0000
0000
0000
0000
0000
0000
0000
0000
0000
0000
0000
0000
0000
0000
0000
0000
0000
0000
0000
0000
0000
0000
0000
0000
0000
0000
0000
0000
0000
0000
0000
0000
0000
0000
0000
0000
0000
0000
0000
0000
0000
0000
0000
0000
0000
0000
0000
,
2222
0000
0000
3330
0000
0000
1010
0000
0000
0000
0000
0000
0110
0000
0000
0000
1110
0000
1010
0000
0000
0000
0000
0000
0110
0000
0000
0000
0000
0000
1010
0000
1110
0000
0000
0000
0110
0000
0000
0000
0000
0000
1010
0000
0000
0000
0000
0000
1110
0000
0000
0000
0000
0000
1010
0000
0000
0000
0000
0000
0110
0000
0000
0000
1113
0000
0000
0000
0000
0000
0000
0000
0000
0000
0000
0000
0000
0000
0000
0000
0000
0000
0000
0000
0000
0000
0000
0000
0000
0000
0000
0000
0000
0000
0000
0000
0000
0000
0000
0000
0000
0000
0000
0000
0000
0000
0000
0000
0000
0000
0000
0000
0000
0000
0000
0000
0000
0000
0000
0000
0000
0000
0000
0000
0000
0000
0000
0000
1111
0000
0000
0000
0000
0000
0000
0000
0000
0000
0000
0000
0000
0000
0000
0000
0000
0000
0000
0000
0000
0000
0000
0000
0000
0000
0000
0000
0000
0000
0000
0000
0000
0000
0000
0000
0000
0000
0000
0000
0000
0000
0000
0000
0000
0000
0000
0000
0000
0000
0000
0000
0000
0000
0000
0000
0000
0000
0000
0000
0000
0000
0000
0000
,
2222
0000
0000
3033
0000
0000
0010
0000
0000
0000
0000
0000
1001
0000
0000
0000
1011
0000
0010
0000
0000
0000
0000
0000
1001
0000
0000
0000
0000
0000
0010
0000
1011
0000
0000
0000
1001
0000
0000
0000
0000
0000
0010
0000
0000
0000
0000
0000
1011
0000
0000
0000
0000
0000
0010
0000
0000
0000
0000
0000
1001
0000
0000
0000
1011
0000
0010
0000
0000
0000
0000
0000
1001
0000
0000
0000
0000
0000
0010
0000
1011
0000
0000
0000
1001
0000
0000
0000
0000
0000
0010
0000
0000
0300
0000
0000
2222
0000
0000
3303
0000
0000
0100
0000
0000
0000
0000
0000
1001
0000
0000
0000
1101
0000
0100
0000
0000
0000
0000
0000
1001
0000
0000
0000
0000
0000
0100
0000
1101
0000
0000
0000
1001
0000
0000
0000
0000
0000
0100
0000
0000
0000
0000
0000
1101
0000
0000
0000
0000
0000
0100
0000
0000
0000
0000
0000
1001
0000
0000
0000
1101
0000
0100
0000
0000
0000
0000
0000
1001
0000
0000
0000
0000
0000
0100
0000
1101
0000
0000
0000
1001
0000
0000
0000
0000
0000
0100
0000
0000
0030
0000
0000
,
2222
0000
0000
0000
,
0000
0000
0000
0000
,
0000
3333
0000
0000
;

//---------------dance-single - Schwer----------------
#NOTES:
     dance-single:
     Schwer:
     Beginner:
     10:
     0.917,1.000,0.194,0.043,0.065,573.000,18.000,4.000,0.000,0.000:


0000
0000
0000
0000
,
1000
0000
0010
0000
0100
0001
0000
0100
,
0001
0000
0010
0000
0100
1000
0000
0100
,
1000
0000
0001
0000
1000
0010
0000
0100
,
0001
1000
1000
0000
,
1000
0000
0100
0000
0010
1000
0000
0010
,
1000
0000
0100
0000
0010
0001
0000
0010
,
0001
0000
1000
0000
0001
0100
0000
0010
,
1000
0001
0001
0000
,
1000
0000
0100
0000
0010
0001
0000
0010
,
0001
0000
0100
0000
0010
1000
0000
0010
,
1000
0000
0001
0000
1000
0100
0000
0010
,
0001
1000
1000
0000
,
0001
0000
1000
0100
1000
0100
1000
0100
,
1000
0000
0001
0100
0001
0100
0001
0100
,
0010
1000
0010
0000
0100
0001
0100
0000
,
0001
0010
0100
1000
0010
0100
0001
1000
,
0010
1000
0010
1000
,
0001
0100
0001
0100
,
0010
1000
0100
0010
,
0001
1000
0100
0010
,
0001
0010
0001
0010
0001
0010
0001
0010
,
0100
1000
0100
1000
0100
1000
0100
1000
,
0001
0010
0100
1000
0010
0100
0001
1000
,
0100
0010
0001
0100
0010
1000
0001
0100
,
0010
0100
0010
1000
,
0100
0010
0001
0100
,
0001
1000
0010
0100
,
0010
1000
0100
0010
,
0001
0100
0001
0100
0001
1000
0001
1000
,
0001
0010
0001
0010
0001
1000
0001
1000
,
0001
0000
0000
0101
0000
0000
1100
0000
,
0010
0001
1000
0100
,
0010
0001
0010
0000
0001
0100
0001
0000
,
0100
0010
1000
0001
,
1000
0010
1000
0000
0010
0100
0010
0000
,
0100
0001
1000
0010
,
1000
0001
1000
0000
0001
1000
0001
0000
,
1000
1000
0001
0001
,
0010
0000
0001
0100
0001
0000
0100
0010
,
0100
0001
1000
0010
,
1000
0000
0100
0010
0100
0000
0010
0001
,
0010
0100
1000
0001
,
1000
0000
0001
0100
0010
1000
0001
0100
,
0010
0010
0100
0100
,
0001
1000
0001
0000
1000
0001
1000
0000
,
0001
0100
0001
0000
0100
0010
0100
0000
,
0010
1000
0010
0000
1000
0100
1000
0000
,
0100
0010
0100
0000
0010
0001
0010
0000
,
0001
0100
0001
0000
1000
0100
1000
0000
,
0001
0010
0001
0000
1000
0100
1000
0000
,
0001
1000
0100
0000
0010
0001
0100
0000
,
0001
1000
0010
0000
0100
0001
1000
0000
,
0100
1000
0001
0000
0010
0001
1000
0000
,
0010
0100
0001
0000
1000
0100
0010
0000
,
0001
1000
0001
0000
1000
0000
0000
0000
,
1100
0000
0101
0000
,
1000
0000
0100
1000
0000
0001
0100
0001
,
1000
0000
0010
1000
0000
0001
0010
0001
,
0010
0000
0100
0000
1000
0001
1000
0001
,
1000
1100
0011
0000
,
0001
0000
0100
0001
0000
1000
0100
1000
,
0001
0000
0010
0001
0000
1000
0010
1000
,
0010
0000
0100
0000
0001
1000
0001
1000
,
0001
0101
1010
0000
,
0010
0000
1000
0001
1000
0100
1000
0001
,
0010
0000
0001
1000
0001
0100
0001
1000
,
0010
0000
1000
0100
0010
0001
0100
0010
,
1000
1100
0101
0000
,
1000
0000
0001
0100
0001
0100
0001
0100
,
0001
0000
1000
0100
1000
0100
1000
0100
,
1000
0000
0001
0000
1000
0000
0001
0000
1000
0000
0001
0000
,
0100
0000
2002
0000
,
0000
0000
0000
0000
,
0000
0000
0000
0000
,
0000
0000
0000
0000
,
0000
0000
3003
0000
,
1000
0000
0001
0000
0010
0100
1000
0001
,
1000
0100
0010
0001
1000
0001
0100
0000
,
0010
0000
1000
0100
1000
0001
1000
0000
,
0010
1000
0001
0100
0001
0000
0010
0100
,
1000
0100
1000
0001
1000
0010
1000
0001
,
0100
0000
0010
1000
0100
0010
0001
0000
,
0100
0001
0000
0000
1000
0000
0001
0100
,
0010
1000
0010
1000
0001
0000
1000
0000
,
0001
0100
0001
0100
0001
0000
1000
0100
,
1000
0100
1000
0000
0010
0100
0010
0100
,
0010
0000
1000
0001
1000
0001
1000
0000
,
0001
0100
0001
0010
0001
0000
1000
0100
,
1000
0010
1000
0000
0010
0100
0010
1000
,
0001
0000
1000
0001
1000
0010
0100
0000
,
0001
0010
0100
1000
0001
0000
1000
0100
,
1000
0010
1000
0001
1000
0010
1000
0100
,
0010
0000
0001
1000
0000
1000
0001
0000
,
0010
0000
0011
0000
0000
1100
0000
0000
,
0100
0000
1000
0001
0000
0001
1000
0000
,
0100
0000
1100
0000
0000
0011
0000
0000
,
0001
0000
0010
0100
0000
0100
0010
0000
,
0001
0000
0100
0010
0000
0010
0100
0000
,
0010
0000
1000
0001
0000
0001
1000
0000
,
0001
0000
1001
0000
0000
1001
0000
0000
,
0010
0000
0001
1000
0001
0000
0100
0000
,
0001
0000
0010
0100
0010
0000
0001
0000
,
0100
0000
0001
1000
0001
0000
0010
0000
,
1000
0000
0100
0010
0100
0000
1000
0000
,
0010
0100
0010
1000
0001
0100
0010
1000
,
0001
0010
0100
1000
0010
0100
0001
1000
,
0001
0000
0001
0000
0001
0000
0000
0000
0000
0000
0000
0000
,
1000
0000
1000
0000
1000
0000
0000
0000
0000
0000
0000
0000
,
0010
0000
0010
0000
0010
0000
0100
0000
0100
0000
0100
0000
,
2002
0000
0000
0000
,
0000
0000
0000
3003
;
